Underworld 2003 Full Movie Download

Posted : admin On 1/26/2022
Site
Страница 1 из 1
[ 1 сообщение ]

Underworld 2003 Full Movie Download In Tamil

Underworld 2003 watch online in HD on 123movies. Underworld full movie free download, streaming.

Underworld 2003 Full Movie Download
Пред. тема След. тема
АвторСообщение
Заголовок сообщения:Другой Мир: Квадрология / Underworld: Quadrilogy (2003/2006/2009/2012) BDRip [1080p]
  • Постеры
Год выпуска: 2003
Жанр: фантастика, боевик, триллер, фэнтези
Описание фильма:
В мире много столетий идет война между двумя расами бессмертных: вампирами и оборотнями-'ликанами'. И для тех, и для других человечество — всего лишь стадо, которым они питаются. Даже среди бессмертных мало таких, кто помнит, с чего началась вражда между ними. Еще меньше тех, кто знает, что и вампиры, и оборотни ведут свой род от одного человека. И те, кто знает об этом, свое знание тщательно скрывает. В секретных лабораториях оба рода создали для войны эффективное сверхсовременное оружие.
Режиссер: Лен Уайзман
Актеры: Кейт Бекинсейл, Скотт Спидман, Майкл Шин, Шэйн Бролли, Билл Найи, Эрвин Ледер, Софи Майлс, Робби Ги, Вентуорф Миллер, Кевин Гревье, Зита Горог, Дэннис Дж. Козелу, Скотт МакЭлрой, Тодд Шнайдер, Сандор Болла, Хэнк Амос, Жужа Барси, Ричард Цетрон, Майк Мукатис, Сандор Борос, Янос Ола
Продолжительность: 02:13:37
Качество видео: BDRip
Перевод: Дублированный
Язык субтитров: английские
Вид субтитров: Вшитые (отключаемые)

Дата мировой премьеры: 8 сентября 2003
Дата российской премьеры: 20 ноября 2003
Дата выхода DVD релиза: 24 ноября 2009
Видеокодек: MPEG-4 AVC/H.264
Битрейт видео: ~8 296 Kbps
Размер кадра: 1916 x 808
Аудио 1: Dolby AC3 48000Hz 6ch 448 Kbps [Русский]
Аудио 2: Dolby AC3 48000Hz 6ch 640 Kbps [Английский]
Format : Matroska
Format version : Version 4 / Version 2
File size : 8.76 GiB
Duration : 2h 13mn
Overall bit rate : 9 386 Kbps
Movie name : Underworld (2003)
Encoded date : UTC 2014-10-03 04:42:23
Writing application : mkvmerge v7.2.0 ('On Every Street') 64bit built on Sep 13 2014 15:52:10
Writing library : libebml v1.3.0 + libmatroska v1.4.1
Video
ID : 1
Format : AVC
Format/Info : Advanced Video Codec
Format profile :
Format settings, CABAC : Yes
Format settings, ReFrames : 5 frames
Codec ID : V_MPEG4/ISO/AVC
Duration : 2h 13mn
Bit rate : 8 296 Kbps
Width : 1 916 pixels
Height : 808 pixels
Display aspect ratio : 2.40:1
Frame rate mode : Constant
Frame rate : 23.976 fps
Color space : YUV
Chroma subsampling : 4:2:0
Bit depth : 8 bits
Scan type : Progressive
Bits/(Pixel*Frame) : 0.224
Stream size : 7.57 GiB (86%)
Writing library : x264 core 142 r2479 dd79a61
Encoding settings : cabac=1 / ref=5 / deblock=1:0:0 / analyse=0x3:0x113 / me=umh / subme=9 / psy=1 / psy_rd=1.00:0.00 / mixed_ref=1 / me_range=24 / chroma_me=1 / trellis=2 / 8x8dct=1 / cqm=0 / deadzone=21,11 / fast_pskip=1 / chroma_qp_offset=-2 / threads=6 / lookahead_threads=1 / sliced_threads=0 / nr=0 / decimate=1 / interlaced=0 / bluray_compat=0 / constrained_intra=0 / bframes=7 / b_pyramid=2 / b_adapt=2 / b_bias=0 / direct=3 / weightb=1 / open_gop=0 / weightp=2 / keyint=240 / keyint_min=24 / scenecut=40 / intra_refresh=0 / rc_lookahead=60 / rc=2pass / mbtree=1 / bitrate=8296 / ratetol=1.0 / qcomp=0.60 / qpmin=0 / qpmax=69 / qpstep=4 / cplxblur=20.0 / qblur=0.5 / ip_ratio=1.40 / aq=1:1.00
Language : English
Default : Yes
Forced : No
Audio #1
ID : 2
Format : AC-3
Format/Info : Audio Coding 3
Mode extension : CM (complete main)
Format settings, Endianness : Big
Codec ID : A_AC3
Duration : 2h 13mn
Bit rate mode : Constant
Bit rate : 448 Kbps
Channel(s) : 6 channels
Channel positions : Front: L C R, Side: L R, LFE
Sampling rate : 48.0 KHz
Bit depth : 16 bits
Compression mode : Lossy
Stream size : 428 MiB (5%)
Title : Dub
Language : Russian
Default : Yes
Forced : No
Audio #2
ID : 3
Format : AC-3
Format/Info : Audio Coding 3
Mode extension : CM (complete main)
Format settings, Endianness : Big
Codec ID : A_AC3
Duration : 2h 13mn
Bit rate mode : Constant
Bit rate : 640 Kbps
Channel(s) : 6 channels
Channel positions : Front: L C R, Side: L R, LFE
Sampling rate : 48.0 KHz
Bit depth : 16 bits
Compression mode : Lossy
Stream size : 612 MiB (7%)
Title : Original
Language : English
Default : No
Forced : No
Text
ID : 4
Format : UTF-8
Codec ID : S_TEXT/UTF8
Codec ID/Info : UTF-8 Plain Text
Title : Full
Language : English
Default : Yes
Forced : No
x264 [info]: frame I:1652 Avg QP:13.94 size:207966
x264 [info]: frame P:47553 Avg QP:16.49 size: 71706
x264 [info]: frame B:143011 Avg QP:17.64 size: 31886


Другой мир 2: Эволюция / Underworld: Evolution (2006) BDRip [1080p]
#777Год выпуска: 2006
Жанр: фантастика, боевик, триллер, фэнтези
Описание фильма:
В зловещем ночном мире, скрытом отвзора простых смертных, не утихает беспощадная борьба между двумя кланами властителей мрака — вампирами и оборотнями. Настала пора узнать об истоках вековой вражды, ставшей для вампира-воительницы Селин и Майкла, полуоборотня-получеловека, проклятьем и смыслом существования.
Сражаясь с могущественными врагами из обоих кланов, древними магистрами смерти, они познают кровавую интригу и запретную любовь, чтобы в сумраке ночи раскрыть тайну своего происхождения и своего наследия. Их ждет великая битва, которая покончит с вечным противостоянием — последняя схватка ради окончания всех войн, в которой бессмертные должны понести кару и расплатиться за свои злодеяния…
Режиссер: Лен Уайзман
Актеры: Кейт Бекинсейл, Скотт Спидман, Тони Каррен, Шэйн Бролли, Дерек Якоби, Билл Найи, Стивен Макинтош, Зита Горог, Брайан Стил, Скотт МакЭлрой, Джон Манн, Майкл Шин, Софи Майлс, Ричард Цетрон, Майк Мукатис, Кристин Даниэль, Кайя Джестал, Аттила Ловаджи, Александр Грант, Моника Гамбург, Лили Мо Шин
Продолжительность: 01:46:22
Качество видео: BDRip
Перевод: Дублированный
Язык субтитров: английские
Вид субтитров: Вшитые (отключаемые)

Дата мировой премьеры: 12 января 2006
Дата российской премьеры: 9 февраля 2006
Дата выхода DVD релиза: 17 сентября 2009
Видеокодек: MPEG-4 AVC/H.264
Битрейт видео: ~8 361 Kbps
Размер кадра: 1916 x 800
Аудио 1: Dolby AC3 48000Hz 6ch 640 Kbps [Русский]
Аудио 2: Dolby AC3 48000Hz 6ch 640 Kbps [Английский]
Format : Matroska
Format version : Version 4 / Version 2
File size : 7.16 GiB
Duration : 1h 46mn
Overall bit rate : 9 641 Kbps
Movie name : Underworld: Evolution (2006)
Encoded date : UTC 2014-10-03 23:51:41
Writing application : mkvmerge v7.2.0 ('On Every Street') 64bit built on Sep 13 2014 15:52:10
Writing library : libebml v1.3.0 + libmatroska v1.4.1
Video
ID : 1
Format : AVC
Format/Info : Advanced Video Codec
Format profile :
Format settings, CABAC : Yes
Format settings, ReFrames : 5 frames
Codec ID : V_MPEG4/ISO/AVC
Duration : 1h 46mn
Bit rate : 8 361 Kbps
Width : 1 916 pixels
Height : 800 pixels
Display aspect ratio : 2.40:1
Frame rate mode : Constant
Frame rate : 23.976 fps
Color space : YUV
Chroma subsampling : 4:2:0
Bit depth : 8 bits
Scan type : Progressive
Bits/(Pixel*Frame) : 0.228
Stream size : 6.07 GiB (85%)
Writing library : x264 core 142 r2479 dd79a61
Encoding settings : cabac=1 / ref=5 / deblock=1:0:0 / analyse=0x3:0x113 / me=umh / subme=9 / psy=1 / psy_rd=1.00:0.00 / mixed_ref=1 / me_range=24 / chroma_me=1 / trellis=2 / 8x8dct=1 / cqm=0 / deadzone=21,11 / fast_pskip=1 / chroma_qp_offset=-2 / threads=6 / lookahead_threads=1 / sliced_threads=0 / nr=0 / decimate=1 / interlaced=0 / bluray_compat=0 / constrained_intra=0 / bframes=10 / b_pyramid=2 / b_adapt=2 / b_bias=0 / direct=3 / weightb=1 / open_gop=0 / weightp=2 / keyint=240 / keyint_min=24 / scenecut=40 / intra_refresh=0 / rc_lookahead=60 / rc=2pass / mbtree=1 / bitrate=8361 / ratetol=1.0 / qcomp=0.60 / qpmin=0 / qpmax=69 / qpstep=4 / cplxblur=20.0 / qblur=0.5 / ip_ratio=1.40 / aq=1:1.00
Language : English
Default : Yes
Forced : No
Audio #1
ID : 2
Format : AC-3
Format/Info : Audio Coding 3
Mode extension : CM (complete main)
Format settings, Endianness : Big
Codec ID : A_AC3
Duration : 1h 46mn
Bit rate mode : Constant
Bit rate : 640 Kbps
Channel(s) : 6 channels
Channel positions : Front: L C R, Side: L R, LFE
Sampling rate : 48.0 KHz
Bit depth : 16 bits
Compression mode : Lossy
Stream size : 487 MiB (7%)
Title : Dub
Language : Russian
Default : Yes
Forced : No
Audio #2
ID : 3
Format : AC-3
Format/Info : Audio Coding 3
Mode extension : CM (complete main)
Format settings, Endianness : Big
Codec ID : A_AC3
Duration : 1h 46mn
Bit rate mode : Constant
Bit rate : 640 Kbps
Channel(s) : 6 channels
Channel positions : Front: L C R, Side: L R, LFE
Sampling rate : 48.0 KHz
Bit depth : 16 bits
Compression mode : Lossy
Stream size : 487 MiB (7%)
Title : Original
Language : English
Default : No
Forced : No
Text
ID : 4
Format : UTF-8
Codec ID : S_TEXT/UTF8
Codec ID/Info : UTF-8 Plain Text
Title : Full
Language : English
Default : Yes
Forced : No
Menu
00:00:00.000 : en:Start
00:09:46.586 : en:The Last Hope
00:12:21.532 : en:Respect the Elders
00:17:18.829 : en:No Going Back
00:23:13.350 : en:Carving a New Course
00:33:49.944 : en:Can't Bear the Hunger
00:38:59.628 : en:Road Rage Reunion
00:43:34.278 : en:A Burning Need
00:49:14.743 : en:Leaving No Trace
00:56:47.237 : en:Relic of Memory
01:03:12.580 : en:The Exile's Snare
01:10:36.190 : en:Time for Answers
01:17:21.637 : en:Truth and Legend
01:21:31.136 : en:Impailing Interrogation
01:28:48.573 : en:Father of the War
01:32:16.614 : en:Bleeding the Map
x264 [info]: frame I:1235 Avg QP:13.87 size:216962
x264 [info]: frame P:43600 Avg QP:16.93 size: 72648
x264 [info]: frame B:108163 Avg QP:18.30 size: 29895


Другой мир: Восстание ликанов / Underworld: Rise of the Lycans (2009) BDRip [1080p]
#777Год выпуска: 2009
Жанр: фантастика, боевик, триллер, фэнтези
Описание фильма:
История, прослеживающая происхождение вековой кровной мести, между аристократическими вампирами, известными как Торговцы смертью и их рабами. Молодой ликан по имени Люциан — мощный лидер, который сплачивает оборотней, чтобы выступить против Виктора, жестокого короля вампиров, который поработил их. К Люциану присоединяется Соня, и помогает ему в его борьбе против смертоносной армии торговцев смертью и борьбе за свободу ликанов.
Режиссер: Патрик Татопулос
Актеры: Майкл Шин, Билл Найи, Рона Митра, Стивен Макинтош, Кевин Гревье, Дэвид Эштон, Джеральдин Брофи, Лейтон Кардно, Алекс Кэрролл, Элизабет Хоторн, Джаред Тернер, Джейсон Худ, Mark Mitchinson, Таня Нолан, Крэйг Паркер, Тимоти Рэби, Ларри Рю, Питер Тейт, Оливия Тейлфорт, Элинор Уильямс, Эдвин Райт
Продолжительность: 01:32:28
Качество видео: BDRip
Перевод: Дублированный
Язык субтитров: английские
Вид субтитров: Вшитые (отключаемые)

Дата мировой премьеры: 22 января 2009
Дата российской премьеры: 5 февраля 2009
Дата выхода DVD релиза: 18 июня 2009
Видеокодек: MPEG-4 AVC/H.264
Битрейт видео: ~9 164 Kbps
Размер кадра: 1920 x 800
Аудио 1: Dolby AC3 48000Hz 6ch 640 Kbps [Русский]
Аудио 2: Dolby AC3 48000Hz 6ch 640 Kbps [Английский]
Format : Matroska
Format version : Version 4 / Version 2
File size : 6.75 GiB
Duration : 1h 32mn
Overall bit rate : 10.4 Mbps
Movie name : Underworld: Rise of the Lycans (2009)
Encoded date : UTC 2014-10-05 00:16:11
Writing application : mkvmerge v7.2.0 ('On Every Street') 64bit built on Sep 13 2014 15:52:10
Writing library : libebml v1.3.0 + libmatroska v1.4.1
Video
ID : 1
Format : AVC
Format/Info : Advanced Video Codec
Format profile :
Format settings, CABAC : Yes
Format settings, ReFrames : 5 frames
Codec ID : V_MPEG4/ISO/AVC
Duration : 1h 32mn
Bit rate : 9 164 Kbps
Width : 1 920 pixels
Height : 800 pixels
Display aspect ratio : 2.40:1
Frame rate mode : Constant
Frame rate : 23.976 fps
Color space : YUV
Chroma subsampling : 4:2:0
Bit depth : 8 bits
Scan type : Progressive
Bits/(Pixel*Frame) : 0.249
Stream size : 5.79 GiB (86%)
Writing library : x264 core 142 r2479 dd79a61
Encoding settings : cabac=1 / ref=5 / deblock=1:0:0 / analyse=0x3:0x113 / me=umh / subme=9 / psy=1 / psy_rd=1.00:0.00 / mixed_ref=1 / me_range=24 / chroma_me=1 / trellis=2 / 8x8dct=1 / cqm=0 / deadzone=21,11 / fast_pskip=1 / chroma_qp_offset=-2 / threads=6 / lookahead_threads=1 / sliced_threads=0 / nr=0 / decimate=1 / interlaced=0 / bluray_compat=0 / constrained_intra=0 / bframes=6 / b_pyramid=2 / b_adapt=2 / b_bias=0 / direct=3 / weightb=1 / open_gop=0 / weightp=2 / keyint=240 / keyint_min=24 / scenecut=40 / intra_refresh=0 / rc_lookahead=60 / rc=2pass / mbtree=1 / bitrate=9164 / ratetol=1.0 / qcomp=0.60 / qpmin=0 / qpmax=69 / qpstep=4 / cplxblur=20.0 / qblur=0.5 / ip_ratio=1.40 / aq=1:1.00
Language : English
Default : Yes
Forced : No
Audio #1
ID : 2
Format : AC-3
Format/Info : Audio Coding 3
Mode extension : CM (complete main)
Format settings, Endianness : Big
Codec ID : A_AC3
Duration : 1h 32mn
Bit rate mode : Constant
Bit rate : 640 Kbps
Channel(s) : 6 channels
Channel positions : Front: L C R, Side: L R, LFE
Sampling rate : 48.0 KHz
Bit depth : 16 bits
Compression mode : Lossy
Stream size : 423 MiB (6%)
Title : Dub
Language : Russian
Default : Yes
Forced : No
Audio #2
ID : 3
Format : AC-3
Format/Info : Audio Coding 3
Mode extension : CM (complete main)
Format settings, Endianness : Big
Codec ID : A_AC3
Duration : 1h 32mn
Bit rate mode : Constant
Bit rate : 640 Kbps
Channel(s) : 6 channels
Channel positions : Front: L C R, Side: L R, LFE
Sampling rate : 48.0 KHz
Bit depth : 16 bits
Compression mode : Lossy
Stream size : 423 MiB (6%)
Title : Original
Language : English
Default : No
Forced : No
Text
ID : 4
Format : UTF-8
Codec ID : S_TEXT/UTF8
Codec ID/Info : UTF-8 Plain Text
Title : SDH
Language : English
Default : Yes
Forced : No
x264 [info]: frame I:1180 Avg QP:14.67 size:237149
x264 [info]: frame P:35693 Avg QP:17.05 size: 77399
x264 [info]: frame B:96160 Avg QP:18.30 size: 34452


Другой мир: Пробуждение / Underworld: Awakening (2012) BDRip [1080p]
#777Год выпуска: 2012
Жанр: фантастика, боевик, триллер, фэнтези
Описание фильма:
Человечество обнаружило существование вампиров и ликанов и начинает войну, чтобы уничтожить эти расы. Селин прорывается к пирсу, где её ждет Майкл для того чтобы вместе отплыть на корабле и скрыться ото всех. Но у пирса их ждет засада. Взрыв гранаты разбрасывает Селин и Майкла в разные стороны. 12 лет спустя Селин просыпается от криогенного сна в лаборатории и узнает о существовании родной дочери Евы — гибрида вампира и ликана. Теперь Селин нужно защитить Еву от ликанов, которые намерены использовать ее, чтобы устранить у своего вида уязвимость от серебра…
Режиссер: Монс Морлинд, Бьёрн Стейн
Актеры: Кейт Бекинсейл, Стивен Ри, Майкл Или, Тео Джеймс, Индия Айли, Чарльз Дэнс, Сандрин Холт, Кристен Холден-Рид, Джейкоб Блэр, Адам Рейд
Продолжительность: 01:28:34
Качество видео: BDRip
Перевод: Дублированный
Язык субтитров: английские
Вид субтитров: Вшитые (отключаемые)

Дата мировой премьеры: 19 января 2012
Дата российской премьеры: 19 января 2012
Дата выхода DVD релиза: 21 февраля 2012
Видеокодек: MPEG-4 AVC/H.264
Битрейт видео: ~8 046 Kbps
Размер кадра: 1920 x 800
Аудио 1: Dolby AC3 48000Hz 6ch 640 Kbps [Русский]
Аудио 2: Dolby AC3 48000Hz 6ch 640 Kbps [Английский]
Format : Matroska
Format version : Version 4 / Version 2
File size : 5.77 GiB
Duration : 1h 28mn
Overall bit rate : 9 327 Kbps
Movie name : Underworld: Awakening (2012)
Encoded date : UTC 2014-10-05 12:13:55
Writing application : mkvmerge v7.2.0 ('On Every Street') 64bit built on Sep 13 2014 15:52:10
Writing library : libebml v1.3.0 + libmatroska v1.4.1
Video
ID : 1
Format : AVC
Format/Info : Advanced Video Codec
Format profile :
Format settings, CABAC : Yes
Format settings, ReFrames : 5 frames
Codec ID : V_MPEG4/ISO/AVC
Duration : 1h 28mn
Bit rate : 8 046 Kbps
Width : 1 920 pixels
Height : 800 pixels
Display aspect ratio : 2.40:1
Frame rate mode : Constant
Frame rate : 23.976 fps
Color space : YUV
Chroma subsampling : 4:2:0
Bit depth : 8 bits
Scan type : Progressive
Bits/(Pixel*Frame) : 0.218
Stream size : 4.86 GiB (84%)
Writing library : x264 core 142 r2479 dd79a61
Encoding settings : cabac=1 / ref=5 / deblock=1:0:0 / analyse=0x3:0x113 / me=umh / subme=9 / psy=1 / psy_rd=1.00:0.00 / mixed_ref=1 / me_range=24 / chroma_me=1 / trellis=2 / 8x8dct=1 / cqm=0 / deadzone=21,11 / fast_pskip=1 / chroma_qp_offset=-2 / threads=6 / lookahead_threads=1 / sliced_threads=0 / nr=0 / decimate=1 / interlaced=0 / bluray_compat=0 / constrained_intra=0 / bframes=8 / b_pyramid=2 / b_adapt=2 / b_bias=0 / direct=3 / weightb=1 / open_gop=0 / weightp=2 / keyint=240 / keyint_min=24 / scenecut=40 / intra_refresh=0 / rc_lookahead=60 / rc=2pass / mbtree=1 / bitrate=8046 / ratetol=1.0 / qcomp=0.60 / qpmin=0 / qpmax=69 / qpstep=4 / cplxblur=20.0 / qblur=0.5 / ip_ratio=1.40 / aq=1:1.00
Language : English
Default : Yes
Forced : No
Audio #1
ID : 2
Format : AC-3
Format/Info : Audio Coding 3
Mode extension : CM (complete main)
Format settings, Endianness : Big
Codec ID : A_AC3
Duration : 1h 28mn
Bit rate mode : Constant
Bit rate : 640 Kbps
Channel(s) : 6 channels
Channel positions : Front: L C R, Side: L R, LFE
Sampling rate : 48.0 KHz
Bit depth : 16 bits
Compression mode : Lossy
Stream size : 405 MiB (7%)
Title : Dub
Language : Russian
Default : Yes
Forced : No
Audio #2
ID : 3
Format : AC-3
Format/Info : Audio Coding 3
Mode extension : CM (complete main)
Format settings, Endianness : Big
Codec ID : A_AC3
Duration : 1h 28mn
Bit rate mode : Constant
Bit rate : 640 Kbps
Channel(s) : 6 channels
Channel positions : Front: L C R, Side: L R, LFE
Sampling rate : 48.0 KHz
Bit depth : 16 bits
Compression mode : Lossy
Stream size : 405 MiB (7%)
Title : Original
Language : English
Default : No
Forced : No
Text
ID : 4
Format : UTF-8
Codec ID : S_TEXT/UTF8
Codec ID/Info : UTF-8 Plain Text
Title : Full
Language : English
Default : Yes
Forced : No
x264 [info]: frame I:1038 Avg QP:11.52 size:212317
x264 [info]: frame P:40515 Avg QP:14.57 size: 65779
x264 [info]: frame B:85872 Avg QP:16.39 size: 28638



Правила, инструкции, FAQ!!!
ТоррентДобавлен
Скачать торрент
143.19 КБ
Проверен
Размер:28.44 ГБ
Приватный:Нет (DHT включён)
Скачали:2 (Раздающих: 0%)
Как залить торрент? Как скачать Torrent? Ошибка в торренте? Качайте магнет


Вернуться к началу
Страница 1 из 1
[ 1 сообщение ]
Download

Full Movie Download Free Bollywood

Movie

Underworld 2003 Full Movie Download

About Underworld. Underworld was released on Sep 19, 2003 and was directed by Len Wiseman.This movie is 2 hr 2 min in duration and is available in English language. Underworld( 2003) Movies Preview. Underworld.Blood.Wars.2016.mp4 download. Download 1 file. TORRENT download. Download 317 Files download 13 Original. Community Video. Community Collections.